Witamy Guest Strona Główna Regulamin Kontakt
User: Hasło:
Stwórz darmowe konto Odzyskiwanie hasła i loginu

Kategorie
 » Wszystkie torrenty
Filmy
 » DVD-R1826  
 » VCD/SVCD74  
 » BluRay/x2643726  
 » DivX/XviD LEKTOR/NAPISY PL52805  
 » DivX/XviD ENG/...19078  
 » RMVB5947  
 » HD543  
 » 3D155  
Seriale
 » Seriale Polskie2295  
 » Seriale Zagraniczne12100  
Dla Dzieci
 » Bajki Pl/Eng1000  
Anime
 » Anime Pl105  
 » Anime1237  
Muzyka
 » Muzyka Polska/Zagraniczna15562  
 » Soundtracki284  
 » Teledyski/Koncerty1891  
Gry
 » Gry PC9263  
 » Gry PS2/PS3/PSP1072  
 » Gry Xbox1151  
 » Gry - Inne Konsole405  
GSM/PDA
 » Tapety GSM/PDA108  
 » Programy GSM/PDA285  
 » Filmy GSM/PDA122  
 » Dzwonki GSM/PDA111  
 » Gry GSM/PDA220  
Książki/Czasopisma
 » E-Booki8974  
 » Audio-Booki866  
 » Czasopisma847  
 » Komiksy610  
Programy
 » Windows10306  
 » Linux363  
 » Macintosh94  
Inne
 » Tapety2357  
 » Śmieszne72  
 » Sport881  
 » Pozostałe246  
Erotyka
 » Czasopisma107  
 » Zdjęcia 5935  
 » Filmy45740  
 » Gry 65  
 » Hentai+1853  
Archiwum


The Weather Man 2005 1080p WEBRip DD5 1 x264 NTb

Kategoria: DivX/XviD ENG/...
Wstawił:  ukulele
Dodano: 16/09/2016
Rozmiar: 9.94 GB
Seedów: 1
Leecherów: 4
Komentarze: 0

Pobierz plik









[+] Show MediaInfo
Video
ID                                       : 1
Format                                   : AVC
Format/Info                              : Advanced Video Codec
Format profile                           : High@L4
Format settings, CABAC                   : Yes
Format settings, ReFrames                : 4 frames
Codec ID                                 : V_MPEG4/ISO/AVC
Duration                                 : 1h 41mn
Bit rate mode                            : Variable
Bit rate                                 : 13.1 Mbps
Maximum bit rate                         : 15.0 Mbps
Width                                    : 1 920 pixels
Height                                   : 1 080 pixels
Display aspect ratio                     : 16:9
Frame rate mode                          : Constant
Frame rate                               : 23.976 (24000/1001) fps
Color space                              : YUV
Chroma subsampling                       : 4:2:0
Bit depth                                : 8 bits
Scan type                                : Progressive
Bits/(Pixel*Frame)                       : 0.263
Stream size                              : 9.29 GiB (93%)
Writing library                          : x264 core 148 r2623 d5b2374
Encoding settings                        : cabac=1 / ref=4 / deblock=1:-1:-1 / analyse=0x3:0x133 / me=umh / subme=9 / psy=1 / psy_rd=1.00:0.15 / mixed_ref=1 / me_range=24 / chroma_me=1 / trellis=2 / 8x8dct=1 / cqm=0 / deadzone=21,11 / fast_pskip=1 / chroma_qp_offset=-3 / threads=34 / lookahead_threads=5 / sliced_threads=0 / nr=150 / decimate=1 / interlaced=0 / bluray_compat=0 / constrained_intra=0 / bframes=8 / b_pyramid=2 / b_adapt=2 / b_bias=0 / direct=3 / weightb=1 / open_gop=0 / weightp=2 / keyint=120 / keyint_min=61 / scenecut=0 / intra_refresh=0 / rc_lookahead=120 / rc=crf / mbtree=1 / crf=18.0 / qcomp=0.60 / qpmin=0 / qpmax=69 / qpstep=4 / vbv_maxrate=15000 / vbv_bufsize=31250 / crf_max=0.0 / nal_hrd=vbr / filler=0 / ip_ratio=1.40 / aq=3:1.00
Default                                  : Yes
Forced                                   : No
Color range                              : Limited
Color primaries                          : BT.709
Transfer characteristics                 : BT.709
Matrix coefficients                      : BT.709

Audio
ID                                       : 2
Format                                   : E-AC-3
Format/Info                              : Audio Coding 3
Format settings, Endianness              : Big
Codec ID                                 : A_EAC3
Duration                                 : 1h 41mn
Bit rate mode                            : Constant
Bit rate                                 : 640 Kbps
Channel(s)                               : 6 channels
Channel positions                        : Front: L C R, Side: L R, LFE
Sampling rate                            : 48.0 KHz
Frame rate                               : 187.500 fps (256 spf)
Compression mode                         : Lossy
Stream size                              : 466 MiB (5%)
Language                                 : English
Default                                  : Yes
Forced                                   : No

Text
ID                                       : 3
Format                                   : UTF-8
Codec ID                                 : S_TEXT/UTF8
Codec ID/Info                            : UTF-8 Plain Text
Default                                  : No
Forced                                   : No



Szczegóły torrenta
Hash
6cf70a5fa1a7a3332a8fef1283065ab0e967649d
Główny tracker
http://tracker.trackerfix.com:80/announce [EXTERNAL]
Aktualizacja
12/03/2017 07:07:09 (Kliknij na [uaktualnij] by odświeżyc statystyki seedów i leecherów).
Zobacz również
Komentarze


Brak komentarzy...


Wstecz