Witamy Guest Strona Główna Regulamin Kontakt
User: Hasło:
Stwórz darmowe konto Odzyskiwanie hasła i loginu

Kategorie
 » Wszystkie torrenty
Filmy
 » DVD-R1829  
 » VCD/SVCD75  
 » BluRay/x2643836  
 » DivX/XviD LEKTOR/NAPISY PL53771  
 » DivX/XviD ENG/...19079  
 » RMVB5947  
 » HD577  
 » 3D179  
Seriale
 » Seriale Polskie2355  
 » Seriale Zagraniczne12728  
Dla Dzieci
 » Bajki Pl/Eng1009  
Anime
 » Anime Pl106  
 » Anime1237  
Muzyka
 » Muzyka Polska/Zagraniczna15602  
 » Soundtracki287  
 » Teledyski/Koncerty1897  
Gry
 » Gry PC9317  
 » Gry PS2/PS3/PSP1072  
 » Gry Xbox1151  
 » Gry - Inne Konsole405  
GSM/PDA
 » Tapety GSM/PDA108  
 » Programy GSM/PDA285  
 » Filmy GSM/PDA122  
 » Dzwonki GSM/PDA111  
 » Gry GSM/PDA220  
Książki/Czasopisma
 » E-Booki9000  
 » Audio-Booki904  
 » Czasopisma848  
 » Komiksy610  
Programy
 » Windows10359  
 » Linux363  
 » Macintosh94  
Inne
 » Tapety2359  
 » Śmieszne72  
 » Sport882  
 » Pozostałe246  
Erotyka
 » Czasopisma107  
 » Zdjęcia 5937  
 » Filmy46024  
 » Gry 65  
 » Hentai+1853  
Archiwum


Independence Daysaster 2013 1080p BluRay x264 DTS FGT

Kategoria: DivX/XviD ENG/...
Wstawił:  ukulele
Dodano: 16/09/2016
Rozmiar: 3.81 GB
Seedów: 0
Leecherów: 4
Komentarze: 0

Pobierz plik
ID                                       : 1
Format                                   : AVC
Format/Info                              : Advanced Video Codec
Format profile                           : High@L4.1
Format settings, CABAC                   : Yes
Format settings, ReFrames                : 4 frames
Codec ID                                 : V_MPEG4/ISO/AVC
Duration                                 : 1h 29mn
Bit rate                                 : 5 182 Kbps
Width                                    : 1 920 pixels
Height                                   : 1 080 pixels
Display aspect ratio                     : 16:9
Frame rate mode                          : Constant
Frame rate                               : 23.976 (24000/1001) fps
Color space                              : YUV
Chroma subsampling                       : 4:2:0
Bit depth                                : 8 bits
Scan type                                : Progressive
Bits/(Pixel*Frame)                       : 0.104
Stream size                              : 3.25 GiB (85%)
Writing library                          : x264 core 140 r2377 1ca7bb9
Encoding settings                        : cabac=1 / ref=4 / deblock=1:-1:-1 / analyse=0x3:0x133 / me=umh / subme=7 / psy=1 / psy_rd=1.00:0.15 / mixed_ref=1 / me_range=16 / chroma_me=1 / trellis=1 / 8x8dct=1 / cqm=0 / deadzone=21,11 / fast_pskip=0 / chroma_qp_offset=-3 / threads=9 / lookahead_threads=1 / sliced_threads=0 / nr=0 / decimate=1 / interlaced=0 / bluray_compat=0 / constrained_intra=0 / bframes=3 / b_pyramid=2 / b_adapt=1 / b_bias=0 / direct=1 / weightb=1 / open_gop=0 / weightp=2 / keyint=250 / keyint_min=23 / scenecut=40 / intra_refresh=0 / rc_lookahead=40 / rc=crf / mbtree=1 / crf=20.0 / qcomp=0.60 / qpmin=0 / qpmax=69 / qpstep=4 / ip_ratio=1.40 / aq=1:1.00
Default                                  : Yes
Forced                                   : No

Audio
ID                                       : 2
Format                                   : DTS
Format/Info                              : Digital Theater Systems
Mode                                     : 16
Format settings, Endianness              : Big
Codec ID                                 : A_DTS
Duration                                 : 1h 29mn
Bit rate mode                            : Constant
Bit rate                                 : 768 Kbps
Channel(s)                               : 6 channels
Channel positions                        : Front: L C R, Side: L R, LFE
Sampling rate                            : 48.0 KHz
Frame rate                               : 93.750 fps (512 spf)
Bit depth                                : 16 bits
Compression mode                         : Lossy
Stream size                              : 493 MiB (13%)
Language                                 : English
Default                                  : No
Forced                                   : No

Menu
00:00:00.000                             : en:00:00:00.000
00:03:17.989                             : en:00:03:17.989
00:11:15.008                             : en:00:11:15.008
00:18:51.380                             : en:00:18:51.380
00:27:14.967                             : en:00:27:14.967
00:33:55.992                             : en:00:33:55.992
00:41:50.007                             : en:00:41:50.007
00:50:40.996                             : en:00:50:40.996
00:59:36.948                             : en:00:59:36.948
01:08:14.924                             : en:01:08:14.924
01:17:36.944                             : en:01:17:36.944
01:25:46.933                             : en:01:25:46.933



Szczegóły torrenta
Hash
631df757aae81a2ed48491b9ed3d14ee0b3a5420
Główny tracker
http://tracker.trackerfix.com:80/announce [EXTERNAL]
Aktualizacja
22/05/2017 08:41:40 (Kliknij na [uaktualnij] by odświeżyc statystyki seedów i leecherów).
Zobacz również
Komentarze


Brak komentarzy...


Wstecz