Witamy Guest Strona Główna Regulamin Kontakt
User: Hasło:
Stwórz darmowe konto Odzyskiwanie hasła i loginu

Kategorie
 » Wszystkie torrenty
Filmy
 » DVD-R1872  
 » VCD/SVCD75  
 » BluRay/x2643932  
 » DivX/XviD LEKTOR/NAPISY PL54860  
 » DivX/XviD ENG/...19080  
 » RMVB5948  
 » HD678  
 » 3D194  
Seriale
 » Seriale Polskie2367  
 » Seriale Zagraniczne13284  
Dla Dzieci
 » Bajki Pl/Eng1011  
Anime
 » Anime Pl113  
 » Anime1237  
Muzyka
 » Muzyka Polska/Zagraniczna15889  
 » Soundtracki290  
 » Teledyski/Koncerty1908  
Gry
 » Gry PC9467  
 » Gry PS2/PS3/PSP1072  
 » Gry Xbox1153  
 » Gry - Inne Konsole406  
GSM/PDA
 » Tapety GSM/PDA108  
 » Programy GSM/PDA311  
 » Filmy GSM/PDA123  
 » Dzwonki GSM/PDA113  
 » Gry GSM/PDA224  
Książki/Czasopisma
 » E-Booki9035  
 » Audio-Booki938  
 » Czasopisma863  
 » Komiksy623  
Programy
 » Windows10420  
 » Linux363  
 » Macintosh94  
Inne
 » Tapety2359  
 » Śmieszne72  
 » Sport895  
 » Pozostałe254  
Erotyka
 » Czasopisma110  
 » Zdjęcia 5948  
 » Filmy46670  
 » Gry 65  
 » Hentai+1853  
Archiwum


Pasja The Passion of the Christ *(2004)* [AC3 DVDRip XviD] [Lektor PL]

Kategoria: DivX/XviD LEKTOR/NAPISY PL
Wstawił:  viola62
Dodano: 02/01/2017
Rozmiar: 1.37 GB
Seedów: 2
Leecherów: 1
Komentarze: 0

Pobierz plik
INFO/

Produkcja: USA
Gatunek: Dramat, Biblijny
Reżyser: Mel Gibson
Scenariusz: Benedict Fitzgerald, Mel Gibson
Zdjęcia: Caleb Deschanel

http://www.filmweb.pl/Pasja

https://www.youtube.com/watch?v=tJYAxgONF3s

http://www.imdb.com/title/tt0335345/?ref_=nv_sr_1

OPIS/

"Pasja" jest wstrząsającym opisem ostatnich 12 godzin życia Jezusa Chrystusa. To zdecydowanie najmocniejsze przedstawienie Pasji, z jakim spotkaliśmy się do tej pory w kinie. Film jest wierny przekazom historycznym, biblijnym oraz teologicznym. Aby podkreślić autentyczność historii, aktorzy posługują się dwoma wymarłymi językami: aramejskim i łaciną.
Film twórcy "Braveheart - Waleczne Serce" wywołuje wiele emocji i kontrowersji. "Pasja" to obrazowe dzieło sztuki prowokujące do poważnego myślenia i refleksji nad śmiercią Chrystusa osoby o różnych przekonaniach religijnych. Jest to film o wierze, nadziei, miłości i przebaczeniu - a więc o tym, czego bardzo potrzeba w dzisiejszych burzliwych czasach

OBSADA/

Jezus Chrystus:......... James Caviezel
Maria:.................. Maia Morgenstern
Maria Magdalena: ....... Monica Bellucci
Szatan: ................ Rosalinda Celentano
Żona Piłata: ........... Claudia Gerini
Piłat: ................. Hristo Shopov
Herod: ................. Luca De Dominicis
Rzymianin: ............. Romuald Andrzej Kłos
Dysmas:................. Sergio Rubini
Gesmas:................. Francesco Cabras
Annasz:................. Toni Bertorelli
Malchus:................ Roberto Bestazzoni
Rzymianin:.............. Emilio De Marchi
Piotr:.................. Francesco De Vito
Rzymianin: ............. Lello Giulivo
Oficer ze świątyni: .... Abel Jefry

DANE/

Format                      : AVI
Format/Info                 : Audio Video Interleave
File size                   : 1.37 GiB
Duration                    : 2h 6mn
Overall bit rate            : 1 550 Kbps
Writing application         : VirtualDubMod 1.5.10.2 (build 2540/release)
Writing library             : VirtualDubMod build 2540/release

Video
ID                          : 0
Format                      : MPEG-4 Visual
Format profile              : Advanced Simple@L5
Format settings, BVOP       : 2
Format settings, QPel       : No
Format settings, GMC        : No warppoints
Format settings, Matrix     : Default (MPEG)
Muxing mode                 : Packed bitstream
Codec ID                    : XVID
Codec ID/Hint               : XviD
Duration                    : 2h 6mn
Bit rate                    : 1 157 Kbps
Width                       : 704 pixels
Height                      : 288 pixels
Display aspect ratio        : 2.40:1
Frame rate                  : 23.976 fps
Color space                 : YUV
Chroma subsampling          : 4:2:0
Bit depth                   : 8 bits
Scan type                   : Progressive
Compression mode            : Lossy
Bits/(Pixel*Frame)          : 0.238
Stream size                 : 1.02 GiB (75%)
Writing library             : XviD 1.2.1 (UTC 2008-12-04)

Audio
ID                          : 1
Format                      : AC-3
Format/Info                 : Audio Coding 3
Mode extension              : CM (complete main)
Format settings, Endianness : Big
Codec ID                    : 2000
Duration                    : 2h 6mn
Bit rate mode               : Constant
Bit rate                    : 384 Kbps
Channel(s)                  : 6 channels
Channel positions           : Front: L C R, Side: L R, LFE
Sampling rate               : 48.0 KHz
Compression mode            : Lossy
Stream size                 : 348 MiB (25%)
Alignment                   : Split accross interleaves
Interleave, duration        : 42 ms (1.00 video frame)
Interleave, preload duratio : 500 ms

PS/ POBRALES -------> SEEDUJ /THX/
Szczegóły torrenta
Hash
62645db903d1bea26dbbe10066b091f3b9d2b766
Główny tracker
http://tracker.devil-Darmowe-ToRenty.pl/announce [EXTERNAL]
Aktualizacja
17/03/2017 19:17:32 (Kliknij na [uaktualnij] by odświeżyc statystyki seedów i leecherów).
Zobacz również
Komentarze


Brak komentarzy...


Wstecz