Witamy Guest (Zaloguj) Strona Główna Regulamin Kontakt
User: Hasło:
Stwórz darmowe konto Odzyskiwanie hasła i loginu

Kategorie
 » Wszystkie torrenty
Filmy :
 » DVD-R1836  
 » VCD/SVCD74  
 » BluRay/x2643780  
 » DivX/XviD LEKTOR/NAPISY PL52987  
 » DivX/XviD ENG/...19082  
 » RMVB6000  
 » HD544  
 » 3D155  
Seriale :
 » Seriale Polskie2313  
 » Seriale Zagraniczne12403  
Dla Dzieci :
 » Bajki Pl/Eng990  
Anime :
 » Anime Pl116  
 » Anime1328  
Muzyka :
 » Muzyka Polska/Zagraniczna16127  
 » Soundtracki298  
 » Teledyski/Koncerty1958  
Gry :
 » Gry PC9306  
 » Gry PS2/PS3/PSP1082  
 » Gry Xbox1162  
 » Gry - Inne Konsole467  
GSM/PDA :
 » Tapety GSM/PDA110  
 » Programy GSM/PDA287  
 » Filmy GSM/PDA122  
 » Dzwonki GSM/PDA111  
 » Gry GSM/PDA220  
Ksiazki/Czasopisma :
 » E-Booki9018  
 » Audio-Booki832  
 » Czasopisma871  
 » Komiksy614  
Programy :
 » Windows10822  
 » Linux386  
 » Macintosh94  
Inne :
 » Tapety2380  
 » Śmieszne72  
 » Sport934  
 » Pozostale247  
Erotyka :
 » Czasopisma109  
 » Zdjęcia 5952  
 » Filmy50900  
 » Gry 65  
 » Hentai+1853  


Dawid i Goliat David and Goliath *2016* [BDRip] [XviD KiT] [Lektor PL]

Kategoria: DivX/XviD LEKTOR/NAPISY PL
Wystawil:  viola62
Data: 05/01/2017
Rozmiar: 700.67 MB
Seedow: 35
Leecherow: 13




Pobierz Torrent
INFO/


Tytuł: David and Goliath / Dawid i Goliat
Produkcja: USA
Gatunek: Dramat, Przygodowy
Czas trwania: 72 min.
Premiera: 2016 (USA)
Reżyseria: Wallace Brothers
Scenariusz: Jeffrey Giles, Michael Lurie

http://www.filmweb.pl/film/Dawid+i+Goliat-2016-741804

http://www.imdb.com/title/tt4352408/?ref_=nv_sr_1

https://fdb.pl/film/774414-dawid-i-goliat


OPIS/


Superprodukcja, opowiadająca historię najsłynniejszego biblijnego pojedynku przedstawionego na kartach Starego Testamentu.



OBSADA/

Matt Berberi ........... Dawid
Michael Foster ......... Goliat
John Knox .............. Samuel
Rodger Halston ......... Saul
Les Brandt ............. Shammah


DANE/


Format           : AVI
Format/Info         : Audio Video Interleave
File size          : 700 MiB
Duration          : 1h 12mn
Overall bit rate      : 1 357 Kbps
Writing application     : VirtualDubMod 1.5.10.2 (build 2540/release)
Writing library       : VirtualDubMod build 2540/release

Video
ID             : 0
Format           : MPEG-4 Visual
Format profile       : Advanced Simple@L5
Format settings, BVOP    : 2
Format settings, QPel    : No
Format settings, GMC    : No warppoints
Format settings, Matrix   : Default (H.263)
Muxing mode         : Packed bitstream
Codec ID          : XVID
Codec ID/Hint        : XviD
Duration          : 1h 12mn
Bit rate          : 1 219 Kbps
Width            : 640 pixels
Height           : 272 pixels
Display aspect ratio    : 2.35:1
Frame rate         : 25.000 fps
Color space         : YUV
Chroma subsampling     : 4:2:0
Bit depth          : 8 bits
Scan type          : Progressive
Compression mode      : Lossy
Bits/(Pixel*Frame)     : 0.280
Stream size         : 629 MiB (90%)
Writing library       : XviD 65

Audio
ID             : 1
Format           : MPEG Audio
Format version       : Version 1
Format profile       : Layer 3
Mode            : Joint stereo
Mode extension       : MS Stereo
Codec ID          : 55
Codec ID/Hint        : MP3
Duration          : 1h 12mn
Bit rate mode        : Constant
Bit rate          : 128 Kbps
Channel(s)         : 2 channels
Sampling rate        : 48.0 KHz
Compression mode      : Lossy
Stream size         : 66.0 MiB (9%)
Alignment          : Aligned on interleaves
Interleave, duration    : 40 ms (1.00 video frame)
Interleave, preload duratio : 504 ms

PS/ POBRALES -------> SEEDUJ /THX/
Szczegoly torrenta
Info Hash
61aaeca1ea901d6b1ed1ce9871461c3dc6b28fcb
Tracker
http://tracker.devil-Darmowe-ToRenty.pl/announce [EXTERNAL]
Uaktualnienie
23/01/2017 02:31:22 (Jeżeli nie widać seeda kliknij na [uaktualnij] by odświeżyc statystyki).
Komentarze




dyzio197321/01/2017 08.54.39
Totalna porazka szkoda czasu


Wstecz