Witamy Guest Strona Główna Regulamin Kontakt
User: Hasło:
Stwórz darmowe konto Odzyskiwanie hasła i loginu

Kategorie
 » Wszystkie torrenty
Filmy
 » DVD-R1907  
 » VCD/SVCD75  
 » BluRay/x2644439  
 » DivX/XviD LEKTOR/NAPISY PL56834  
 » DivX/XviD ENG/...19086  
 » RMVB5952  
 » HD777  
 » 3D232  
Seriale
 » Seriale Polskie2695  
 » Seriale Zagraniczne14826  
Dla Dzieci
 » Bajki Pl/Eng1031  
Anime
 » Anime Pl115  
 » Anime1237  
Muzyka
 » Muzyka Polska/Zagraniczna17442  
 » Soundtracki333  
 » Teledyski/Koncerty1955  
Gry
 » Gry PC10315  
 » Gry PS2/PS3/PSP1076  
 » Gry Xbox1159  
 » Gry - Inne Konsole407  
GSM/PDA
 » Tapety GSM/PDA108  
 » Programy GSM/PDA313  
 » Filmy GSM/PDA123  
 » Dzwonki GSM/PDA113  
 » Gry GSM/PDA225  
Książki/Czasopisma
 » E-Booki9134  
 » Audio-Booki1009  
 » Czasopisma875  
 » Komiksy636  
Programy
 » Windows10621  
 » Linux363  
 » Macintosh94  
Inne
 » Tapety2386  
 » Śmieszne72  
 » Sport905  
 » Pozostałe275  
Erotyka
 » Czasopisma111  
 » Zdjęcia 6015  
 » Filmy52006  
 » Gry 66  
 » Hentai+1853  
Archiwum


Żegnajcie towarzysze *2012*odc 5 [ Przewrot 1989] [480p] [DVBRip] [x264] [Lektor PL]

Kategoria: BluRay/x264
Wstawił:  viola62
Dodano: 23/12/2016
Rozmiar: 840.42 MB
Seedów: 8
Leecherów: 3
Komentarze: 0

...( Info )...


Żegnajcie towarzysze
serial dokumentalny Polska 2012
Reżyseria: Andrei Nekrasov



...( Opis )...


Próba prześledzenia wydarzeń związanych z rozpadem ZSRR i upadkiem komunizmu, podkreślająca udział Polski w działaniach, które doprowadziły do obalenia systemu.

Odci. 5

W tym odcinku..
Autorzy programu omawiają wydarzenia z 1989 roku w Europie Środkowo-Wschodniej. Wspominają okoliczności zorganizowania częściowo wolnych wyborów w Polsce, a także przebieg rewolucji w NRD, Bułgarii, Rumunii czy Czechosłowacji.


...( Dane Techniczne )...


Format                      : Matroska
Format version              : Version 4 / Version 2
File size                   : 840 MiB
Duration                    : 54mn 4s
Overall bit rate            : 2 171 Kbps
Encoded date                : UTC 2015-08-04 17:28:13
Writing application         : mkvmerge v7.1.0 ('Good Love&#039 32bit built on Jul 27 2014 12:59:18
Writing library             : libebml v1.3.0 + libmatroska v1.4.1
DURATION                    : 00:54:02.237000000
NUMBER_OF_FRAMES            : 100633
NUMBER_OF_BYTES             : 38643072
_STATISTICS_WRITING_APP     : mkvmerge v7.1.0 ('Good Love&#039 32bit built on Jul 27 2014 12:59:18
_STATISTICS_WRITING_DATE_UT : 2015-08-04 17:28:13
_STATISTICS_TAGS            : BPS DURATION NUMBER_OF_FRAMES NUMBER_OF_BYTES

Video
ID                          : 1
Format                      : AVC
Format/Info                 : Advanced Video Codec
Format profile              : Main@L3
Format settings, CABAC      : Yes
Format settings, ReFrames   : 4 frames
Format settings, GOP        : M=4, N=24
Codec ID                    : V_MPEG4/ISO/AVC
Bit rate                    : 1 871 Kbps
Width                       : 720 pixels
Height                      : 576 pixels
Display aspect ratio        : 16:9
Frame rate mode             : Variable
Original frame rate         : 25.000 fps
Color space                 : YUV
Chroma subsampling          : 4:2:0
Bit depth                   : 8 bits
Scan type                   : Interlaced
Scan order                  : Top Field First
Default                     : Yes
Forced                      : No
Color range                 : Limited
Color primaries             : BT.601 PAL
Transfer characteristics    : BT.470 System B, BT.470 System G
Matrix coefficients         : BT.601

Audio #1
ID                          : 2
Format                      : MPEG Audio
Format version              : Version 1
Format profile              : Layer 2
Codec ID                    : A_MPEG/L2
Codec ID/Hint               : MP2
Duration                    : 54mn 4s
Bit rate mode               : Constant
Bit rate                    : 160 Kbps
Channel(s)                  : 2 channels
Sampling rate               : 48.0 KHz
Compression mode            : Lossy
Delay relative to video     : -1s 522ms
Stream size                 : 61.9 MiB (7%)
Language                    : Polish
Default                     : Yes
Forced                      : No

Audio #2
ID                          : 3
Format                      : E-AC-3
Format/Info                 : Audio Coding 3
Format settings, Endianness : Big
Codec ID                    : A_EAC3
Duration                    : 54mn 4s
Bit rate mode               : Constant
Bit rate                    : 96.0 Kbps
Channel(s)                  : 2 channels
Channel positions           : Front: L R
Sampling rate               : 48.0 KHz
Compression mode            : Lossy
Delay relative to video     : -1s 444ms
Stream size                 : 37.1 MiB (4%)
Default                     : No
Forced                      : No


PS/ POBRALES -------> SEEDUJ /THX/
Szczegóły torrenta
Hash
5fca5a34b5f653d94839686e439b75019bd6c589
Aktualizacja
05/01/2017 20:21:40 (Kliknij na [uaktualnij] by odświeżyc statystyki seedów i leecherów).
Zobacz również
Komentarze


Brak komentarzy...


Wstecz