Witamy Guest Strona Główna Regulamin Kontakt
User: Hasło:
Stwórz darmowe konto Odzyskiwanie hasła i loginu

Kategorie
 » Wszystkie torrenty
Filmy
 » DVD-R1885  
 » VCD/SVCD75  
 » BluRay/x2644019  
 » DivX/XviD LEKTOR/NAPISY PL55501  
 » DivX/XviD ENG/...19081  
 » RMVB5948  
 » HD720  
 » 3D205  
Seriale
 » Seriale Polskie2374  
 » Seriale Zagraniczne13514  
Dla Dzieci
 » Bajki Pl/Eng1020  
Anime
 » Anime Pl114  
 » Anime1237  
Muzyka
 » Muzyka Polska/Zagraniczna15957  
 » Soundtracki292  
 » Teledyski/Koncerty1919  
Gry
 » Gry PC9523  
 » Gry PS2/PS3/PSP1072  
 » Gry Xbox1153  
 » Gry - Inne Konsole406  
GSM/PDA
 » Tapety GSM/PDA108  
 » Programy GSM/PDA313  
 » Filmy GSM/PDA123  
 » Dzwonki GSM/PDA113  
 » Gry GSM/PDA224  
Książki/Czasopisma
 » E-Booki9037  
 » Audio-Booki938  
 » Czasopisma863  
 » Komiksy623  
Programy
 » Windows10471  
 » Linux363  
 » Macintosh94  
Inne
 » Tapety2361  
 » Śmieszne72  
 » Sport897  
 » Pozostałe255  
Erotyka
 » Czasopisma110  
 » Zdjęcia 5960  
 » Filmy47024  
 » Gry 65  
 » Hentai+1853  
Archiwum


Maroon 5 This Summer's Gonna Hurt Like A Motherfucker (2015) [mp4]

Kategoria: Teledyski/Koncerty
Wstawił:  Bezzol
Dodano: 01/03/2016
Rozmiar: 147.00 MB
Seedów: 0
Leecherów: 0
Komentarze: 0

Pobierz plik
Maroon 5 - This Summer's Gonna Hurt Like A Motherfucker (2015)
Synthpop
Interscope
MP4
5mn 30s

https://en.wikipedia.org/wiki/This_Summer's_Gonna_Hurt_like_a_Motherfucker


This Summer's Gonna Hurt Like A Motherfucker (03:45)


DLA:wlodo


General
Format : MPEG-4
Format profile : Base Media
Codec ID : isom
File size : 147 MiB
Duration : 5mn 30s
Overall bit rate : 3 727 Kbps


Video
ID : 1
Format : MPEG-4 Visual
Format profile : Simple@L1
Format settings, BVOP : No
Format settings, QPel : No
Format settings, GMC : No warppoints
Format settings, Matrix : Default (H.263)
Codec ID : 20
Duration : 5mn 30s
Bit rate mode : Constant
Bit rate : 3 601 Kbps
Width : 1 920 pixels
Height : 1 080 pixels
Display aspect ratio : 16:9
Frame rate mode : Constant
Frame rate : 23.976 fps
Color space : YUV
Chroma subsampling : 4:2:0
Bit depth : 8 bits
Scan type : Progressive
Compression mode : Lossy
Bits/(Pixel*Frame) : 0.072
Stream size : 142 MiB (97%)


Audio
ID : 2
Format : AAC
Format/Info : Advanced Audio Codec
Format profile : LC
Codec ID : 40
Duration : 5mn 30s
Bit rate mode : Variable
Bit rate : 121 Kbps
Maximum bit rate : 128 Kbps
Channel(s) : 2 channels
Channel positions : Front: L R
Sampling rate : 44.1 KHz
Compression mode : Lossy
Stream size : 4.79 MiB (3%)
Szczegóły torrenta
Hash
5d10391f7f8dac28d59d12f2b6cb80f18684f1fc
Główny tracker
udp://open.demonii.com:1337/announce [EXTERNAL]
Aktualizacja
26/06/2016 09:33:23 (Kliknij na [uaktualnij] by odświeżyc statystyki seedów i leecherów).
Zobacz również
atb
Komentarze


Brak komentarzy...


Wstecz