Witamy Guest Strona Główna Regulamin Kontakt
User: Hasło:
Stwórz darmowe konto Odzyskiwanie hasła i loginu

Kategorie
 » Wszystkie torrenty
Filmy
 » DVD-R1896  
 » VCD/SVCD75  
 » BluRay/x2644211  
 » DivX/XviD LEKTOR/NAPISY PL56445  
 » DivX/XviD ENG/...19083  
 » RMVB5949  
 » HD766  
 » 3D224  
Seriale
 » Seriale Polskie2567  
 » Seriale Zagraniczne14337  
Dla Dzieci
 » Bajki Pl/Eng1030  
Anime
 » Anime Pl115  
 » Anime1237  
Muzyka
 » Muzyka Polska/Zagraniczna16300  
 » Soundtracki298  
 » Teledyski/Koncerty1927  
Gry
 » Gry PC9701  
 » Gry PS2/PS3/PSP1074  
 » Gry Xbox1155  
 » Gry - Inne Konsole407  
GSM/PDA
 » Tapety GSM/PDA108  
 » Programy GSM/PDA313  
 » Filmy GSM/PDA123  
 » Dzwonki GSM/PDA113  
 » Gry GSM/PDA225  
Książki/Czasopisma
 » E-Booki9049  
 » Audio-Booki957  
 » Czasopisma865  
 » Komiksy626  
Programy
 » Windows10583  
 » Linux363  
 » Macintosh94  
Inne
 » Tapety2363  
 » Śmieszne72  
 » Sport900  
 » Pozostałe256  
Erotyka
 » Czasopisma110  
 » Zdjęcia 5979  
 » Filmy47685  
 » Gry 66  
 » Hentai+1853  
Archiwum


Maroon 5 This Summer's Gonna Hurt Like A Motherfucker (2015) [mp4]

Kategoria: Teledyski/Koncerty
Wstawił:  Bezzol
Dodano: 01/03/2016
Rozmiar: 147.00 MB
Seedów: 0
Leecherów: 0
Komentarze: 0

Pobierz plik
Maroon 5 - This Summer's Gonna Hurt Like A Motherfucker (2015)
Synthpop
Interscope
MP4
5mn 30s

https://en.wikipedia.org/wiki/This_Summer's_Gonna_Hurt_like_a_Motherfucker


This Summer's Gonna Hurt Like A Motherfucker (03:45)


DLA:wlodo


General
Format : MPEG-4
Format profile : Base Media
Codec ID : isom
File size : 147 MiB
Duration : 5mn 30s
Overall bit rate : 3 727 Kbps


Video
ID : 1
Format : MPEG-4 Visual
Format profile : Simple@L1
Format settings, BVOP : No
Format settings, QPel : No
Format settings, GMC : No warppoints
Format settings, Matrix : Default (H.263)
Codec ID : 20
Duration : 5mn 30s
Bit rate mode : Constant
Bit rate : 3 601 Kbps
Width : 1 920 pixels
Height : 1 080 pixels
Display aspect ratio : 16:9
Frame rate mode : Constant
Frame rate : 23.976 fps
Color space : YUV
Chroma subsampling : 4:2:0
Bit depth : 8 bits
Scan type : Progressive
Compression mode : Lossy
Bits/(Pixel*Frame) : 0.072
Stream size : 142 MiB (97%)


Audio
ID : 2
Format : AAC
Format/Info : Advanced Audio Codec
Format profile : LC
Codec ID : 40
Duration : 5mn 30s
Bit rate mode : Variable
Bit rate : 121 Kbps
Maximum bit rate : 128 Kbps
Channel(s) : 2 channels
Channel positions : Front: L R
Sampling rate : 44.1 KHz
Compression mode : Lossy
Stream size : 4.79 MiB (3%)
Szczegóły torrenta
Hash
5d10391f7f8dac28d59d12f2b6cb80f18684f1fc
Aktualizacja
26/06/2016 09:33:23 (Kliknij na [uaktualnij] by odświeżyc statystyki seedów i leecherów).
Zobacz również
Komentarze


Brak komentarzy...


Wstecz