Witamy Guest (Zaloguj) Strona Główna Regulamin Kontakt
User: Hasło:
Stwórz darmowe konto Odzyskiwanie hasła i loginu

Kategorie
 » Wszystkie torrenty
Filmy :
 » DVD-R1836  
 » VCD/SVCD74  
 » BluRay/x2643780  
 » DivX/XviD LEKTOR/NAPISY PL52966  
 » DivX/XviD ENG/...19082  
 » RMVB6000  
 » HD544  
 » 3D155  
Seriale :
 » Seriale Polskie2313  
 » Seriale Zagraniczne12403  
Dla Dzieci :
 » Bajki Pl/Eng981  
Anime :
 » Anime Pl116  
 » Anime1328  
Muzyka :
 » Muzyka Polska/Zagraniczna16123  
 » Soundtracki298  
 » Teledyski/Koncerty1958  
Gry :
 » Gry PC9304  
 » Gry PS2/PS3/PSP1082  
 » Gry Xbox1162  
 » Gry - Inne Konsole467  
GSM/PDA :
 » Tapety GSM/PDA110  
 » Programy GSM/PDA287  
 » Filmy GSM/PDA122  
 » Dzwonki GSM/PDA111  
 » Gry GSM/PDA220  
Ksiazki/Czasopisma :
 » E-Booki9018  
 » Audio-Booki828  
 » Czasopisma871  
 » Komiksy614  
Programy :
 » Windows10822  
 » Linux386  
 » Macintosh94  
Inne :
 » Tapety2380  
 » ¦mieszne72  
 » Sport934  
 » Pozostale247  
Erotyka :
 » Czasopisma109  
 » Zdjęcia 5951  
 » Filmy48962  
 » Gry 65  
 » Hentai+1853  


Maroon 5 This Summer's Gonna Hurt Like A Motherfucker (2015) [mp4]

Kategoria: Teledyski/Koncerty
Wystawil:  Bezzol
Data: 01/03/2016
Rozmiar: 147.00 MB
Seedow: 0
Leecherow: 0




Pobierz Torrent
Maroon 5 - This Summer's Gonna Hurt Like A Motherfucker (2015)
Synthpop
Interscope
MP4
5mn 30s

https://en.wikipedia.org/wiki/This_Summer's_Gonna_Hurt_like_a_Motherfucker


This Summer's Gonna Hurt Like A Motherfucker (03:45)


DLA:wlodo


General
Format : MPEG-4
Format profile : Base Media
Codec ID : isom
File size : 147 MiB
Duration : 5mn 30s
Overall bit rate : 3 727 Kbps


Video
ID : 1
Format : MPEG-4 Visual
Format profile : Simple@L1
Format settings, BVOP : No
Format settings, QPel : No
Format settings, GMC : No warppoints
Format settings, Matrix : Default (H.263)
Codec ID : 20
Duration : 5mn 30s
Bit rate mode : Constant
Bit rate : 3 601 Kbps
Width : 1 920 pixels
Height : 1 080 pixels
Display aspect ratio : 16:9
Frame rate mode : Constant
Frame rate : 23.976 fps
Color space : YUV
Chroma subsampling : 4:2:0
Bit depth : 8 bits
Scan type : Progressive
Compression mode : Lossy
Bits/(Pixel*Frame) : 0.072
Stream size : 142 MiB (97%)


Audio
ID : 2
Format : AAC
Format/Info : Advanced Audio Codec
Format profile : LC
Codec ID : 40
Duration : 5mn 30s
Bit rate mode : Variable
Bit rate : 121 Kbps
Maximum bit rate : 128 Kbps
Channel(s) : 2 channels
Channel positions : Front: L R
Sampling rate : 44.1 KHz
Compression mode : Lossy
Stream size : 4.79 MiB (3%)
Szczegoly torrenta
Info Hash
5d10391f7f8dac28d59d12f2b6cb80f18684f1fc
Tracker
udp://open.demonii.com:1337/announce [EXTERNAL]
Uaktualnienie
20/01/2017 01:34:47 (Jeżeli nie widać seeda kliknij na [uaktualnij] by od¶wieżyc statystyki).
Komentarze


Brak komentarzy...


Wstecz