Witamy Guest Strona Główna Regulamin Kontakt
User: Hasło:
Stwórz darmowe konto Odzyskiwanie hasła i loginu

Kategorie
 » Wszystkie torrenty
Filmy
 » DVD-R1826  
 » VCD/SVCD74  
 » BluRay/x2643726  
 » DivX/XviD LEKTOR/NAPISY PL52805  
 » DivX/XviD ENG/...19078  
 » RMVB5947  
 » HD543  
 » 3D155  
Seriale
 » Seriale Polskie2295  
 » Seriale Zagraniczne12100  
Dla Dzieci
 » Bajki Pl/Eng1000  
Anime
 » Anime Pl105  
 » Anime1237  
Muzyka
 » Muzyka Polska/Zagraniczna15562  
 » Soundtracki284  
 » Teledyski/Koncerty1891  
Gry
 » Gry PC9263  
 » Gry PS2/PS3/PSP1072  
 » Gry Xbox1151  
 » Gry - Inne Konsole405  
GSM/PDA
 » Tapety GSM/PDA108  
 » Programy GSM/PDA285  
 » Filmy GSM/PDA122  
 » Dzwonki GSM/PDA111  
 » Gry GSM/PDA220  
Książki/Czasopisma
 » E-Booki8974  
 » Audio-Booki866  
 » Czasopisma847  
 » Komiksy610  
Programy
 » Windows10306  
 » Linux363  
 » Macintosh94  
Inne
 » Tapety2357  
 » Śmieszne72  
 » Sport881  
 » Pozostałe246  
Erotyka
 » Czasopisma107  
 » Zdjęcia 5935  
 » Filmy45740  
 » Gry 65  
 » Hentai+1853  
Archiwum


Żegnajcie towarzysze *2012*odc 4 Wstrząs [480p] [DVBRip] [x264] [Lektor PL]

Kategoria: BluRay/x264
Wstawił:  viola62
Dodano: 23/12/2016
Rozmiar: 821.48 MB
Seedów: 4
Leecherów: 0
Komentarze: 0

Pobierz plik
...( Info )...


Żegnajcie towarzysze
serial dokumentalny Polska 2012
Reżyseria: Andrei Nekrasov


...( Opis )...


Próba prześledzenia wydarzeń związanych z rozpadem ZSRR i upadkiem komunizmu, podkreślająca udział Polski w działaniach, które doprowadziły do obalenia systemu.

W tym odcinku..
Koniec dekady lat osiemdziesiątych XX wieku. Idee pieriestrojki i głasnosti zaczynają mieć swój wpływ na sytuację w Związku Radzieckim i państwach satelickich. Powstają nowe gazety i czasopisma, korzystając z większej swobody wypowiedzi. Jednocześnie narastają problemy ekonomiczne i zaczynają dawać o sobie znać konflikty etniczne w różnych częściach kraju.


...( Dane Techniczne )...


Format                      : Matroska
Format version              : Version 4 / Version 2
File size                   : 821 MiB
Duration                    : 55mn 5s
Overall bit rate            : 2 084 Kbps
Encoded date                : UTC 2015-08-04 18:28:49
Writing application         : mkvmerge v7.1.0 ('Good Love&#039 32bit built on Jul 27 2014 12:59:18
Writing library             : libebml v1.3.0 + libmatroska v1.4.1
DURATION                    : 00:55:02.558000000
NUMBER_OF_FRAMES            : 102401
NUMBER_OF_BYTES             : 39321984
_STATISTICS_WRITING_APP     : mkvmerge v7.1.0 ('Good Love&#039 32bit built on Jul 27 2014 12:59:18
_STATISTICS_WRITING_DATE_UT : 2015-08-04 18:28:49
_STATISTICS_TAGS            : BPS DURATION NUMBER_OF_FRAMES NUMBER_OF_BYTES

Video
ID                          : 1
Format                      : AVC
Format/Info                 : Advanced Video Codec
Format profile              : Main@L3
Format settings, CABAC      : Yes
Format settings, ReFrames   : 4 frames
Format settings, GOP        : M=4, N=24
Codec ID                    : V_MPEG4/ISO/AVC
Bit rate                    : 1 787 Kbps
Width                       : 720 pixels
Height                      : 576 pixels
Display aspect ratio        : 16:9
Frame rate mode             : Variable
Original frame rate         : 25.000 fps
Color space                 : YUV
Chroma subsampling          : 4:2:0
Bit depth                   : 8 bits
Scan type                   : Interlaced
Scan order                  : Bottom Field First
Default                     : Yes
Forced                      : No
Color range                 : Limited
Color primaries             : BT.601 PAL
Transfer characteristics    : BT.470 System B, BT.470 System G
Matrix coefficients         : BT.601

Audio #1
ID                          : 2
Format                      : MPEG Audio
Format version              : Version 1
Format profile              : Layer 2
Codec ID                    : A_MPEG/L2
Codec ID/Hint               : MP2
Duration                    : 55mn 5s
Bit rate mode               : Constant
Bit rate                    : 160 Kbps
Channel(s)                  : 2 channels
Sampling rate               : 48.0 KHz
Compression mode            : Lossy
Delay relative to video     : -702ms
Stream size                 : 63.0 MiB (8%)
Language                    : Polish
Default                     : Yes
Forced                      : No

Audio #2
ID                          : 3
Format                      : E-AC-3
Format/Info                 : Audio Coding 3
Format settings, Endianness : Big
Codec ID                    : A_EAC3
Duration                    : 55mn 5s
Bit rate mode               : Constant
Bit rate                    : 96.0 Kbps
Channel(s)                  : 2 channels
Channel positions           : Front: L R
Sampling rate               : 48.0 KHz
Compression mode            : Lossy
Delay relative to video     : -584ms
Stream size                 : 37.8 MiB (5%)
Default                     : No
Forced                      : No


PS/ POBRALES --------> SEEDUJ /THX/
Szczegóły torrenta
Hash
405cf992fe92b89a18e1ada308c1593b9838d6ac
Główny tracker
http://tracker.devil-Darmowe-ToRenty.pl/announce [EXTERNAL]
Aktualizacja
05/01/2017 20:22:13 (Kliknij na [uaktualnij] by odświeżyc statystyki seedów i leecherów).
Zobacz również
Komentarze


Brak komentarzy...


Wstecz