Witamy Guest Strona Główna Regulamin Kontakt
User: Hasło:
Stwórz darmowe konto Odzyskiwanie hasła i loginu

Kategorie
 » Wszystkie torrenty
Filmy
 » DVD-R1854  
 » VCD/SVCD75  
 » BluRay/x2643888  
 » DivX/XviD LEKTOR/NAPISY PL54357  
 » DivX/XviD ENG/...19079  
 » RMVB5947  
 » HD610  
 » 3D182  
Seriale
 » Seriale Polskie2360  
 » Seriale Zagraniczne13058  
Dla Dzieci
 » Bajki Pl/Eng1009  
Anime
 » Anime Pl106  
 » Anime1237  
Muzyka
 » Muzyka Polska/Zagraniczna15681  
 » Soundtracki288  
 » Teledyski/Koncerty1902  
Gry
 » Gry PC9383  
 » Gry PS2/PS3/PSP1072  
 » Gry Xbox1151  
 » Gry - Inne Konsole405  
GSM/PDA
 » Tapety GSM/PDA108  
 » Programy GSM/PDA311  
 » Filmy GSM/PDA122  
 » Dzwonki GSM/PDA111  
 » Gry GSM/PDA224  
Książki/Czasopisma
 » E-Booki9023  
 » Audio-Booki921  
 » Czasopisma855  
 » Komiksy612  
Programy
 » Windows10387  
 » Linux363  
 » Macintosh94  
Inne
 » Tapety2359  
 » Śmieszne72  
 » Sport883  
 » Pozostałe247  
Erotyka
 » Czasopisma110  
 » Zdjęcia 5944  
 » Filmy46286  
 » Gry 65  
 » Hentai+1853  
Archiwum


Zorro *1957* [COLORiZED] [CUSTOM] [AC3] [DVDRip] [DivX RETRO] [odc 31 39] [LEKTOR PL]

Kategoria: Seriale Zagraniczne
Wstawił:  viola62
Dodano: 31/10/2016
Rozmiar: 3.26 GB
Seedów: 0
Leecherów: 0
Komentarze: 0

Pobierz plik
INFO /


Polski tytuł: Zorro
Oryginalny tytuł: Zorro
Produkcja: USA
Gatunek: Fmilijny, Przygodowy
Data premiery: 1957-10-10 (Świat)
Reżyseria: Hollingsworth Morse, Charles Barton i in.
Scenariusz: Johnston McCulley, Bob Wehling i in.
Muzyka: William Lava
Zdjęcia: Gordon Avil
Czas trwania: 25 min.

Odcinki 31-39



OPIS/




Don Diego powraca do domu i dostrzega, że jego rodzinnym miastem rządzi okrutny kapitan Monastario. Mężczyzna postanawia przeciwstawić się tyranii.



OBSADA/




Guy Williams ======== Zorro / Don Diego de la Vega / Don Diego
Gene Sheldon ======== Bernardo
Henry Calvista ====== Sgt. Demetrio Lopez Garcia
Don Diamond ========= Corp. Reyes / Cpl. Reyes / Lancer Hivarro
George J. Lewis ======= Don Alejandro de la Vega



DANE TECHN./



Format  : AVI
Format/Info  : Audio Video Interleave
File size  : 410 MiB
Duration  : 24mn 15s
Overall bit rate : 2 362 Kbps
Movie name  : CUSTOM.AC3.DVDRip.DivX-RETRO
Writing application : VirtualDubMod 1.5.10.2 (build 2540/release)
Writing library : VirtualDubMod build 2540/release

Video
ID  : 0
Format  : MPEG-4 Visual
Format settings, BVOP : 1
Format settings, QPel : No
Format settings, GMC : No warppoints
Format settings, Matrix : Default (H.263)
Muxing mode  : Packed bitstream
Codec ID  : DX50
Codec ID/Hint : DivX 5
Duration  : 24mn 15s
Bit rate  : 2 160 Kbps
Width  : 704 pixels
Height  : 528 pixels
Display aspect ratio : 4:3
Frame rate  : 25.000 fps
Color space  : YUV
Chroma subsampling : 4:2:0
Bit depth  : 8 bits
Scan type  : Progressive
Compression mode : Lossy
Bits/(Pixel*Frame) : 0.232
Stream size  : 375 MiB (91%)
Writing library : DivX 5.2.1 Alpha (UTC 2004-09-0

Audio
ID  : 1
Format  : AC-3
Format/Info  : Audio Coding 3
Mode extension : CM (complete main)
Format settings, Endianness : Big
Codec ID  : 2000
Duration  : 24mn 15s
Bit rate mode : Constant
Bit rate  : 192 Kbps
Channel(s)  : 2 channels
Channel positions : Front: L R
Sampling rate : 48.0 KHz
Compression mode : Lossy
Stream size  : 33.3 MiB (8%)
Alignment  : Split accross interleaves
Interleave, duration : 40 ms (1.00 video frame)
Interleave, preload duratio : 500 ms


http://www.filmweb.pl/film/Znak+Zorro-1958-114886

zwiastun / https://www.youtube.com/watch?v=1ikHhNqSrwY
Szczegóły torrenta
Hash
2b1acf408e89ca4af696fefa4639fdfeb71ce8cb
Główny tracker
http://tracker.devil-Darmowe-ToRenty.pl/announce [EXTERNAL]
Aktualizacja
05/04/2017 02:05:40 (Kliknij na [uaktualnij] by odświeżyc statystyki seedów i leecherów).
Zobacz również
Komentarze


Brak komentarzy...


Wstecz