Witamy Guest (Zaloguj) Strona Główna Regulamin Kontakt
User: Hasło:
Stwórz darmowe konto Odzyskiwanie hasła i loginu

Kategorie
 » Wszystkie torrenty
Filmy :
 » DVD-R1836  
 » VCD/SVCD74  
 » BluRay/x2643780  
 » DivX/XviD LEKTOR/NAPISY PL52966  
 » DivX/XviD ENG/...19082  
 » RMVB6000  
 » HD544  
 » 3D155  
Seriale :
 » Seriale Polskie2313  
 » Seriale Zagraniczne12403  
Dla Dzieci :
 » Bajki Pl/Eng981  
Anime :
 » Anime Pl116  
 » Anime1328  
Muzyka :
 » Muzyka Polska/Zagraniczna16123  
 » Soundtracki298  
 » Teledyski/Koncerty1958  
Gry :
 » Gry PC9304  
 » Gry PS2/PS3/PSP1082  
 » Gry Xbox1162  
 » Gry - Inne Konsole467  
GSM/PDA :
 » Tapety GSM/PDA110  
 » Programy GSM/PDA287  
 » Filmy GSM/PDA122  
 » Dzwonki GSM/PDA111  
 » Gry GSM/PDA220  
Ksiazki/Czasopisma :
 » E-Booki9018  
 » Audio-Booki828  
 » Czasopisma871  
 » Komiksy614  
Programy :
 » Windows10822  
 » Linux386  
 » Macintosh94  
Inne :
 » Tapety2380  
 » Śmieszne72  
 » Sport934  
 » Pozostale247  
Erotyka :
 » Czasopisma109  
 » Zdjęcia 5951  
 » Filmy48962  
 » Gry 65  
 » Hentai+1853  


Jezus z Nazaretu Jesus of Nazareth *1977* [4CD] [DVDRip XviD AC3] [Lektor PL]

Kategoria: DivX/XviD LEKTOR/NAPISY PL
Wystawil:  viola62
Data: 04/01/2017
Rozmiar: 700.85 MB
Seedow: 10
Leecherow: 2




Pobierz Torrent
INFO/


produkcja: ..... Wielka Brytania, Włochy
gatunek: ..... Biograficzny, Religijny, Dramat historyczny
data premiery: ..... 1977-04-03 (Świat)
reżyseria: ..... Franco Zeffirelli
scenariusz: ..... Franco Zeffirelli, Suso Cecchi d'Amico
zdjęcia:..... Armando Nannuzzi
muzyka: ..... Maurice Jarre
serial:..... epizody: 4

http://www.filmweb.pl/serial/Jezus+z+Nazaretu-1977-35269

http://www.imdb.com/title/tt0075520/?ref_=fn_al_tt_1


OPIS/


Wielu krytyków uważa go za film najlepszy w swoim gatunku, a z pewnością za najbardziej szczegółowy opis życia Jezusa. Film nie ogranicza się tylko do męczeństwa i śmierci Chrystusa, a prezentuje także jego wcześniejsze losy, także losy osób z Nim związanych. Film był ogromnym przedsięwzięciem, z wystawną scenografią i kostiumami. Bardzo dużym atutem dzieła jest gwiazdorska obsada, m.in.: Anne Bancroft (Maria Magdalena), Anthony Quinn (Kajfasz), Christopher Plummer (Herod Antypas) czy Michael York (Jan Chrzciciel). Najpiękniejszymi partiami filmu są sceny prezentujące Ostatnią Wieczerzę, scena sądu nad Chrystusem oraz kończące film Męka i Zmartwychwstanie.


OBSADA/


Michael York .............. Jan Baptysta
Yorgo Voyagis ............. Józef
Anthony Quinn ............ Caiaphas
Stacy Keach ............... Barabbas
Robert Powell ............ Jezus Chrystus
Peter Ustinov ............. Herod Wielki
Laurence Olivier ......... Nicodemus
Ian McShane .............. Judas Iscariot
Valentina Cortese ........ Herodias


DANE/


Format           : AVI
Format/Info         : Audio Video Interleave
File size          : 701 MiB
Duration          : 36mn 57s
Overall bit rate      : 2 650 Kbps
Writing application     : VirtualDubMod 1.5.4.1 (build 2178/release)
Writing library       : VirtualDubMod build 2178/release

Video
ID             : 0
Format           : MPEG-4 Visual
Format profile       : Advanced Simple@L5
Format settings, BVOP    : 1
Format settings, QPel    : No
Format settings, GMC    : No warppoints
Format settings, Matrix   : Custom
Codec ID          : XVID
Codec ID/Hint        : XviD
Duration          : 36mn 57s
Bit rate          : 2 452 Kbps
Width            : 720 pixels
Height           : 544 pixels
Display aspect ratio    : 4:3
Frame rate         : 25.000 fps
Color space         : YUV
Chroma subsampling     : 4:2:0
Bit depth          : 8 bits
Scan type          : Progressive
Compression mode      : Lossy
Bits/(Pixel*Frame)     : 0.250
Stream size         : 648 MiB (93%)
Writing library       : XviD 1.2.1 (UTC 2008-12-04)

Audio
ID             : 1
Format           : AC-3
Format/Info         : Audio Coding 3
Mode extension       : CM (complete main)
Format settings, Endianness : Big
Codec ID          : 2000
Duration          : 36mn 50s
Bit rate mode        : Constant
Bit rate          : 192 Kbps
Channel(s)         : 2 channels
Channel positions      : Front: L R
Sampling rate        : 48.0 KHz
Compression mode      : Lossy
Stream size         : 50.6 MiB (7%)
Alignment          : Split accross interleaves
Interleave, duration    : 96 ms (2.41 video frames)
Interleave, preload duratio : 96 ms

PS/ POBRALES --------> SEEDUJ /THX/
Szczegoly torrenta
Info Hash
25b0d23aaa170e43741f352340503ec502428ce1
Tracker
http://tracker.devil-Darmowe-ToRenty.pl/announce [EXTERNAL]
Uaktualnienie
20/01/2017 01:37:11 (Jeżeli nie widać seeda kliknij na [uaktualnij] by odświeżyc statystyki).
Komentarze


Brak komentarzy...


Wstecz