Witamy Guest (Zaloguj) Strona Główna Regulamin Kontakt
User: Hasło:
Stwórz darmowe konto Odzyskiwanie hasła i loginu

Kategorie
 » Wszystkie torrenty
Filmy :
 » DVD-R1836  
 » VCD/SVCD74  
 » BluRay/x2643780  
 » DivX/XviD LEKTOR/NAPISY PL52965  
 » DivX/XviD ENG/...19082  
 » RMVB6000  
 » HD544  
 » 3D155  
Seriale :
 » Seriale Polskie2313  
 » Seriale Zagraniczne12402  
Dla Dzieci :
 » Bajki Pl/Eng981  
Anime :
 » Anime Pl116  
 » Anime1328  
Muzyka :
 » Muzyka Polska/Zagraniczna16122  
 » Soundtracki298  
 » Teledyski/Koncerty1958  
Gry :
 » Gry PC9304  
 » Gry PS2/PS3/PSP1082  
 » Gry Xbox1162  
 » Gry - Inne Konsole467  
GSM/PDA :
 » Tapety GSM/PDA109  
 » Programy GSM/PDA287  
 » Filmy GSM/PDA122  
 » Dzwonki GSM/PDA111  
 » Gry GSM/PDA220  
Ksiazki/Czasopisma :
 » E-Booki9018  
 » Audio-Booki828  
 » Czasopisma871  
 » Komiksy614  
Programy :
 » Windows10822  
 » Linux386  
 » Macintosh94  
Inne :
 » Tapety2380  
 » Śmieszne72  
 » Sport934  
 » Pozostale247  
Erotyka :
 » Czasopisma109  
 » Zdjęcia 5951  
 » Filmy48596  
 » Gry 65  
 » Hentai+1853  


Żegnajcie towarzysze *2012* odc 3 Nadzieja [480p] [DVBRip] [x264] [Lektor PL]

Kategoria: BluRay/x264
Wystawil:  viola62
Data: 23/12/2016
Rozmiar: 685.39 MB
Seedow: 6
Leecherow: 2




Pobierz Torrent
...( Info )...


Żegnajcie towarzysze
serial dokumentalny Polska 2012
Reżyseria: Andrei Nekrasov


...( Opis )...


Próba prześledzenia wydarzeń związanych z rozpadem ZSRR i upadkiem komunizmu, podkreślająca udział Polski w działaniach, które doprowadziły do obalenia systemu.

W tym odcinku..
Autorzy programu omawiają okoliczności dojścia do władzy w Związku Radzieckim Michaiła Gorbaczowa oraz przybliżają szczegóły głoszonych przez niego idei pieriestrojki i głasnosti. Przypominają też tragiczne konsekwencje katastrofy elektrowni jądrowej w Czarnobylu na Ukrainie.


...( Dane Techniczne )...


Format                      : Matroska
Format version              : Version 4 / Version 2
File size                   : 685 MiB
Duration                    : 51mn 32s
Overall bit rate            : 1 859 Kbps
Encoded date                : UTC 2015-07-21 18:52:36
Writing application         : mkvmerge v7.3.0 ('Nouages&#039 64bit built on Oct 22 2014 18:53:34
Writing library             : libebml v1.3.0 + libmatroska v1.4.1
DURATION                    : 00:51:29.344000000
NUMBER_OF_FRAMES            : 96542
NUMBER_OF_BYTES             : 37072128
_STATISTICS_WRITING_APP     : mkvmerge v7.3.0 ('Nouages&#039 64bit built on Oct 22 2014 18:53:34
_STATISTICS_WRITING_DATE_UT : 2015-07-21 18:52:36
_STATISTICS_TAGS            : BPS DURATION NUMBER_OF_FRAMES NUMBER_OF_BYTES

Video
ID                          : 1
Format                      : AVC
Format/Info                 : Advanced Video Codec
Format profile              : Main@L3
Format settings, CABAC      : Yes
Format settings, ReFrames   : 4 frames
Format settings, GOP        : M=4, N=24
Codec ID                    : V_MPEG4/ISO/AVC
Bit rate                    : 1 566 Kbps
Width                       : 720 pixels
Height                      : 576 pixels
Display aspect ratio        : 16:9
Frame rate mode             : Variable
Original frame rate         : 25.000 fps
Color space                 : YUV
Chroma subsampling          : 4:2:0
Bit depth                   : 8 bits
Scan type                   : Interlaced
Scan order                  : Top Field First
Default                     : Yes
Forced                      : No
Color range                 : Limited
Color primaries             : BT.601 PAL
Transfer characteristics    : BT.470 System B, BT.470 System G
Matrix coefficients         : BT.601

Audio #1
ID                          : 2
Format                      : MPEG Audio
Format version              : Version 1
Format profile              : Layer 2
Codec ID                    : A_MPEG/L2
Codec ID/Hint               : MP2
Duration                    : 51mn 32s
Bit rate mode               : Constant
Bit rate                    : 160 Kbps
Channel(s)                  : 2 channels
Sampling rate               : 48.0 KHz
Compression mode            : Lossy
Delay relative to video     : -1s 2ms
Stream size                 : 59.0 MiB (9%)
Language                    : Polish
Default                     : Yes
Forced                      : No

Audio #2
ID                          : 3
Format                      : E-AC-3
Format/Info                 : Audio Coding 3
Format settings, Endianness : Big
Codec ID                    : A_EAC3
Duration                    : 51mn 32s
Bit rate mode               : Constant
Bit rate                    : 96.0 Kbps
Channel(s)                  : 2 channels
Channel positions           : Front: L R
Sampling rate               : 48.0 KHz
Compression mode            : Lossy
Delay relative to video     : -764ms
Stream size                 : 35.4 MiB (5%)
Default                     : No
Forced                      : No


PS/ POBRALES -------> SEEDUJ /THX/
Szczegoly torrenta
Info Hash
1fd014603c30ce7fdd6b93eff76dc532221b0b60
Tracker
http://tracker.devil-Darmowe-ToRenty.pl/announce [EXTERNAL]
Uaktualnienie
18/01/2017 18:05:13 (Jeżeli nie widać seeda kliknij na [uaktualnij] by odświeżyc statystyki).
Komentarze


Brak komentarzy...


Wstecz