Witamy Guest Strona Główna Regulamin Kontakt
User: Hasło:
Stwórz darmowe konto Odzyskiwanie hasła i loginu

Kategorie
 » Wszystkie torrenty
Filmy
 » DVD-R1893  
 » VCD/SVCD75  
 » BluRay/x2644175  
 » DivX/XviD LEKTOR/NAPISY PL56213  
 » DivX/XviD ENG/...19082  
 » RMVB5949  
 » HD749  
 » 3D219  
Seriale
 » Seriale Polskie2491  
 » Seriale Zagraniczne14022  
Dla Dzieci
 » Bajki Pl/Eng1029  
Anime
 » Anime Pl115  
 » Anime1237  
Muzyka
 » Muzyka Polska/Zagraniczna16049  
 » Soundtracki294  
 » Teledyski/Koncerty1924  
Gry
 » Gry PC9615  
 » Gry PS2/PS3/PSP1073  
 » Gry Xbox1153  
 » Gry - Inne Konsole407  
GSM/PDA
 » Tapety GSM/PDA108  
 » Programy GSM/PDA313  
 » Filmy GSM/PDA123  
 » Dzwonki GSM/PDA113  
 » Gry GSM/PDA225  
Książki/Czasopisma
 » E-Booki9044  
 » Audio-Booki956  
 » Czasopisma863  
 » Komiksy623  
Programy
 » Windows10553  
 » Linux363  
 » Macintosh94  
Inne
 » Tapety2362  
 » Śmieszne72  
 » Sport899  
 » Pozostałe255  
Erotyka
 » Czasopisma110  
 » Zdjęcia 5971  
 » Filmy47388  
 » Gry 65  
 » Hentai+1853  
Archiwum


Jezus z Nazaretu Jesus of Nazareth *1977* [2CD] [DVDRip XviD AC3] [Lektor PL]

Kategoria: DivX/XviD LEKTOR/NAPISY PL
Wstawił:  viola62
Dodano: 04/01/2017
Rozmiar: 700.65 MB
Seedów: 2
Leecherów: 1
Komentarze: 0

Pobierz plik
INFO/


produkcja: ..... Wielka Brytania, Włochy
gatunek: ..... Biograficzny, Religijny, Dramat historyczny
data premiery: ..... 1977-04-03 (Świat)
reżyseria: ..... Franco Zeffirelli
scenariusz: ..... Franco Zeffirelli, Suso Cecchi d'Amico
zdjęcia:..... Armando Nannuzzi
muzyka: ..... Maurice Jarre
serial:..... epizody: 4

http://www.filmweb.pl/serial/Jezus+z+Nazaretu-1977-35269

http://www.imdb.com/title/tt0075520/?ref_=fn_al_tt_1


OPIS/



Wielu krytyków uważa go za film najlepszy w swoim gatunku, a z pewnością za najbardziej szczegółowy opis życia Jezusa. Film nie ogranicza się tylko do męczeństwa i śmierci Chrystusa, a prezentuje także jego wcześniejsze losy, także losy osób z Nim związanych. Film był ogromnym przedsięwzięciem, z wystawną scenografią i kostiumami. Bardzo dużym atutem dzieła jest gwiazdorska obsada, m.in.: Anne Bancroft (Maria Magdalena), Anthony Quinn (Kajfasz), Christopher Plummer (Herod Antypas) czy Michael York (Jan Chrzciciel). Najpiękniejszymi partiami filmu są sceny prezentujące Ostatnią Wieczerzę, scena sądu nad Chrystusem oraz kończące film Męka i Zmartwychwstanie.


OBSADA/


Michael York .............. Jan Baptysta
Yorgo Voyagis ............. Józef
Anthony Quinn ............ Caiaphas
Stacy Keach ............... Barabbas
Robert Powell ............ Jezus Chrystus
Peter Ustinov ............. Herod Wielki
Laurence Olivier ......... Nicodemus
Ian McShane .............. Judas Iscariot
Valentina Cortese ........ Herodias


DANE/


Format           : AVI
Format/Info         : Audio Video Interleave
File size          : 700 MiB
Duration          : 1h 32mn
Overall bit rate      : 1 062 Kbps
Writing application     : VirtualDubMod 1.5.4.1 (build 2178/release)
Writing library       : VirtualDubMod build 2178/release

Video
ID             : 0
Format           : MPEG-4 Visual
Format profile       : Advanced Simple@L5
Format settings, BVOP    : 1
Format settings, QPel    : No
Format settings, GMC    : No warppoints
Format settings, Matrix   : Custom
Codec ID          : XVID
Codec ID/Hint        : XviD
Duration          : 1h 32mn
Bit rate          : 864 Kbps
Width            : 512 pixels
Height           : 384 pixels
Display aspect ratio    : 4:3
Frame rate         : 25.000 fps
Color space         : YUV
Chroma subsampling     : 4:2:0
Bit depth          : 8 bits
Scan type          : Progressive
Compression mode      : Lossy
Bits/(Pixel*Frame)     : 0.176
Stream size         : 570 MiB (81%)
Writing library       : XviD 1.2.1 (UTC 2008-12-04)

Audio
ID             : 1
Format           : AC-3
Format/Info         : Audio Coding 3
Mode extension       : CM (complete main)
Format settings, Endianness : Big
Codec ID          : 2000
Duration          : 1h 31mn
Bit rate mode        : Constant
Bit rate          : 192 Kbps
Channel(s)         : 2 channels
Channel positions      : Front: L R
Sampling rate        : 48.0 KHz
Compression mode      : Lossy
Delay relative to video   : 24ms
Stream size         : 126 MiB (18%)
Alignment          : Split accross interleaves
Interleave, duration    : 96 ms (2.41 video frames)
Interleave, preload duratio : 96 ms

ZWIASTUN/ https://www.youtube.com/watch?v=tm3RfymlhgU&t=33s

PS/ POBRALES ----------> SEEDUJ /THX/
Szczegóły torrenta
Hash
098ff0635265da75ec67be36d8a13c90bfebfe42
Główny tracker
http://tracker.devil-Darmowe-ToRenty.pl/announce [EXTERNAL]
Aktualizacja
15/03/2017 16:10:49 (Kliknij na [uaktualnij] by odświeżyc statystyki seedów i leecherów).
Zobacz również
Komentarze


Brak komentarzy...


Wstecz