Witamy Guest Strona Główna Regulamin Kontakt
User: Hasło:
Stwórz darmowe konto Odzyskiwanie hasła i loginu

Kategorie
 » Wszystkie torrenty
Filmy
 » DVD-R1922  
 » VCD/SVCD75  
 » BluRay/x2644894  
 » DivX/XviD LEKTOR/NAPISY PL58796  
 » DivX/XviD ENG/...19114  
 » RMVB5952  
 » HD832  
 » 3D242  
Seriale
 » Seriale Polskie3467  
 » Seriale Zagraniczne18784  
Dla Dzieci
 » Bajki Pl/Eng1036  
Anime
 » Anime Pl118  
 » Anime1237  
Muzyka
 » Muzyka Polska/Zagraniczna17984  
 » Soundtracki352  
 » Teledyski/Koncerty1980  
Gry
 » Gry PC10512  
 » Gry PS2/PS3/PSP1078  
 » Gry Xbox1159  
 » Gry - Inne Konsole407  
GSM/PDA
 » Tapety GSM/PDA108  
 » Programy GSM/PDA328  
 » Filmy GSM/PDA123  
 » Dzwonki GSM/PDA113  
 » Gry GSM/PDA225  
Książki/Czasopisma
 » E-Booki9310  
 » Audio-Booki1093  
 » Czasopisma903  
 » Komiksy640  
Programy
 » Windows11261  
 » Linux365  
 » Macintosh94  
Inne
 » Tapety2387  
 » Śmieszne72  
 » Sport908  
 » Pozostałe275  
Erotyka
 » Czasopisma119  
 » Zdjęcia 6166  
 » Filmy74432  
 » Gry 66  
 » Hentai+1853  
Archiwum


Brat naszego Boga Our God's Brother *(1997)* [TVRip] [XviD] [Lektor PL]

Kategoria: DivX/XviD LEKTOR/NAPISY PL
Wstawił:  viola62
Dodano: 05/01/2017
Rozmiar: 944.42 MB
Seedów: 0
Leecherów: 0
Komentarze: 0

INFO/


gatunek: Biograficzny,Dramat Religijny.
produkcja: Niemcy,Polska,Włochy
premiera: 1997
czas: 1 godz. 59 min.
reżyseria: Krzysztof Zanussi

http://www.filmweb.pl/film/Brat+naszego+Boga-1997-570

http://www.imdb.com/title/tt0119846/?ref_=fn_al_tt_1

https://fdb.pl/film/3084-brat-naszego-boga


OPIS/



Film biograficzny, adaptacja sztuki Karola Wojtyły. W teatrze trwają przygotowania do przedstawienia, wykonawca głównej roli opowiada o swym bohaterze, Adamie Chmielowskim, malarzu i duchownym. Stopniowo akcja przenosi się z garderoby teatralnej na scenę, potem na ulice i do wnętrz XIX-wiecznego Krakowa.



OBSADA/

Scott Wilson ........... Adam Chmielowski
Wojciech Pszoniak ....... Nieznajomy
Grażyna Szapołowska ...... Helena Modrzejewska
Andrzej Żarnecki ........ Mąż Pani Heleny
Piotr Adamczyk ........ Hubert



DANE/

Format           : AVI
Format/Info         : Audio Video Interleave
File size          : 944 MiB
Duration          : 1h 59mn
Overall bit rate      : 1 108 Kbps
Writing application     : Lavf55.19.104

Video
ID             : 0
Format           : xvid
Codec ID          : xvid
Duration          : 1h 59mn
Bit rate          : 1 000 Kbps
Width            : 720 pixels
Height           : 480 pixels
Display aspect ratio    : 3:2
Frame rate         : 25.000 fps
Bits/(Pixel*Frame)     : 0.116
Stream size         : 851 MiB (90%)

Audio
ID             : 1
Format           : MPEG Audio
Format version       : Version 1
Format profile       : Layer 3
Mode            : Joint stereo
Mode extension       : MS Stereo
Codec ID          : 55
Codec ID/Hint        : MP3
Duration          : 1h 59mn
Bit rate mode        : Constant
Bit rate          : 96.0 Kbps
Channel(s)         : 2 channels
Sampling rate        : 44.1 KHz
Compression mode      : Lossy
Stream size         : 81.7 MiB (9%)
Alignment          : Aligned on interleaves
Interleave, duration    : 26 ms (0.65 video frame)

ZWIASTUN / https://www.youtube.com/watch?v=QvXvO2VMCKg

PS/ POBRALES ------> SEEDUJ /THX/
Szczegóły torrenta
Hash
0750a4cd938565b914101b25a72327a91e8a2f98
Aktualizacja
20/03/2017 16:53:10 (Kliknij na [uaktualnij] by odświeżyc statystyki seedów i leecherów).
Zobacz również
Komentarze


Brak komentarzy...


Wstecz