Witamy Guest Strona Główna Regulamin Kontakt
User: Hasło:
Stwórz darmowe konto Odzyskiwanie hasła i loginu

Kategorie
 » Wszystkie torrenty
Filmy
 » DVD-R1826  
 » VCD/SVCD74  
 » BluRay/x2643726  
 » DivX/XviD LEKTOR/NAPISY PL52808  
 » DivX/XviD ENG/...19078  
 » RMVB5947  
 » HD543  
 » 3D157  
Seriale
 » Seriale Polskie2297  
 » Seriale Zagraniczne12101  
Dla Dzieci
 » Bajki Pl/Eng1000  
Anime
 » Anime Pl105  
 » Anime1237  
Muzyka
 » Muzyka Polska/Zagraniczna15562  
 » Soundtracki284  
 » Teledyski/Koncerty1891  
Gry
 » Gry PC9263  
 » Gry PS2/PS3/PSP1072  
 » Gry Xbox1151  
 » Gry - Inne Konsole405  
GSM/PDA
 » Tapety GSM/PDA108  
 » Programy GSM/PDA285  
 » Filmy GSM/PDA122  
 » Dzwonki GSM/PDA111  
 » Gry GSM/PDA220  
Książki/Czasopisma
 » E-Booki8974  
 » Audio-Booki866  
 » Czasopisma847  
 » Komiksy610  
Programy
 » Windows10306  
 » Linux363  
 » Macintosh94  
Inne
 » Tapety2357  
 » Śmieszne72  
 » Sport881  
 » Pozostałe246  
Erotyka
 » Czasopisma107  
 » Zdjęcia 5935  
 » Filmy45761  
 » Gry 65  
 » Hentai+1853  
Archiwum


Columbo Decydujaca rozgrywka [DVDRip Xvid] [Lektor PL]

Kategoria: Seriale Zagraniczne
Wstawił:  viola62
Dodano: 30/10/2016
Rozmiar: 700.25 MB
Seedów: 0
Leecherów: 1
Komentarze: 0

Pobierz plik
info/


twórca: Richard Levinson
gatunek: Kryminał
pozostałe informacje o serialu
Columbo

muzyka: Billy Goldenberg,Dave Grusin
zdjęcia: Ray Rennahan
studio: NBC Universal Television
kraj: USA

http://www.filmweb.pl/serial/Columbo-1968-534418/photos/449882

http://www.filmweb.pl/serial/Columbo-1968-534418/photos/449893

http://www.filmweb.pl/serial/Columbo-1968-534418/photos/449884

opis/


Zmięty prochowiec, cygaro i niepokojące szklane oko sprawiły, że bohater zagościł w wyobraźni widzów na wiele lat. Kultowy już dzisiaj serial kryminalny ma na swoim koncie wiele nagród, rekord popularności, a do jego sławy przyczynił się m.in. Steven Spielberg. Gościnnie w produkcji wystąpili John Cassavetes, Leslie Nielsen i Martin Sheen, a wielu aktorów właśnie od "Columbo" rozpoczynało swoja karierę (m.in. Kim Cattrall, gwiazda "Seksu w wielkim mieście&quot. W roli jednego z najbardziej znanych detektywów na świecie wystąpił legendarny aktor Peter Falk.


obsada/


Peter Falk ============ Porucznik Frank Columbo
Gene Barry ============ Doktor Ray Flemming
Katherine Justice ==== Joan Hudson
Nina Foch ============ Carol Flemming

dane tech./



Format : AVI
Format/Info : Audio Video Interleave
File size : 700 MiB
Duration : 1h 10mn
Overall bit rate : 1 393 Kbps
Writing application : FairUse Wizard - http://fairusewizard.com
Writing library : The best and REALLY easy backup tool

Video
ID : 0
Format : MPEG-4 Visual
Format profile : Advanced Simple@L5
Format settings, BVOP : 1
Format settings, QPel : No
Format settings, GMC : No warppoints
Format settings, Matrix : Default (MPEG)
Muxing mode : Packed bitstream
Codec ID : XVID
Codec ID/Hint : XviD
Duration : 1h 10mn
Bit rate : 1 256 Kbps
Width : 592 pixels
Height : 480 pixels
Display aspect ratio : 5:4
Frame rate : 25.000 fps
Color space : YUV
Chroma subsampling : 4:2:0
Bit depth : 8 bits
Scan type : Progressive
Compression mode : Lossy
Bits/(Pixel*Frame) : 0.177
Stream size : 631 MiB (90%)
Writing library : XviD 1.2.0.dev47 (UTC 2006-11-01)

Audio
ID : 1
Format : MPEG Audio
Format version : Version 1
Format profile : Layer 3
Mode : Joint stereo
Mode extension : MS Stereo
Codec ID : 55
Codec ID/Hint : MP3
Duration : 1h 10mn
Bit rate mode : Constant
Bit rate : 128 Kbps
Channel(s) : 2 channels
Sampling rate : 48.0 KHz
Compression mode : Lossy
Stream size : 64.3 MiB (9%)
Alignment : Aligned on interleaves
Interleave, duration : 40 ms (1.00 video frame)
Interleave, preload duratio : 504 ms
Writing library : LAME3.97

zwiastun / https://www.youtube.com/watch?v=Su0EQwidjEA
Szczegóły torrenta
Hash
0111e42cacf1899db4491b7fb4ca041d9a06e0a7
Główny tracker
http://tracker.devil-Darmowe-ToRenty.pl/announce [EXTERNAL]
Aktualizacja
22/02/2017 16:51:53 (Kliknij na [uaktualnij] by odświeżyc statystyki seedów i leecherów).
Zobacz również
Komentarze


Brak komentarzy...


Wstecz