Witamy Guest (Zaloguj) Strona Główna Kontakt Regulamin
User: Hasło:
Stwórz konto Odzyskiwanie hasła

Kategorie
Filmy :
 » Filmy DVD-R1093  
 » Filmy VCD/SVCD75  
 » Filmy BluRay/x2641481  
 » Filmy DivX/XviD29057  
 » Filmy RMVB5592  
Seriale :
 » Seriale Polskie1588  
 » Seriale Zagraniczne4823  
Anime :
 » Anime Pl135  
 » Anime1179  
Dla Dzieci :
 » Bajki Pl/Eng874  
Muzyka :
 » Muzyka Polska/Zagraniczna12361  
 » Soundtracki297  
 » Teledyski/Koncerty1703  
Gry :
 » Gry PC5083  
 » Gry PS2/PS3/PSP794  
 » Gry Xbox915  
 » Gry - Inne Konsole419  
GSM/PDA :
 » Tapety GSM/PDA100  
 » Programy GSM/PDA210  
 » Filmy GSM/PDA122  
 » Dzwonki GSM/PDA103  
 » Gry GSM/PDA175  
Ksiazki/Czasopisma :
 » E-Booki1040  
 » Audio-Booki463  
 » Czasopisma518  
 » Komiksy215  
Programy :
 » Windows9097  
 » Linux381  
 » Macintosh82  
Inne :
 » Śmieszne67  
 » Tapety2305  
 » Sport852  
 » Pozostale147  
Erotyka :
 » Czasopisma101  
 » Zdjęcia 1005  
 » Filmy8171  
 » Gry 58  
 » Hentai+1853  

Szkoła uczuć A Walk to Remember *2002* [DVDRip XviD] [Lektor PL]

Kategoria: Filmy DivX/XviD
Wystawil:  victor123
Data: 10/05/2013
Rozmiar: 700.02 MB
Seedów: 7
Leecherów: 0
Pobrano: ---

Uaktualnij


Pobierz Torrent





Szkoła uczuć - A Walk to Remember *2002* [DVDRip.XviD] [Lektor PL]

produkcja: USA
gatunek: Melodramat, Dla młodzieży
data premiery: 2002-01-23
od lat: 12
czas trwania: 101

reżyseria: Adam Shankman
zdjęcia: Julio Macat
muzyka: Jeff Cardoni
scenariusz: Karen Jansen

Opis:

Landon Carter jest najpopularniejszym chłopcem w szkole. Jest zabawny, ma super ciuchy, najładniejsze panny i fajowych kumpli. Jest po prostu cool. Pewnego dnia postanawia wraz z kumplami trochę ponabijać się z pierwszoklasisty, co kończy się tragedią. W ramach resocjalizacji zostaje przydzielony przez dyrektora szkoły do \"załogi sprzątającej\" korytarz, w soboty musi pomagać w lekcjach matołkom z podstawówki, i o zgrozo, wystąpić w kwaśnej sztuce, przygotowywanej przez kółko teatralne na koniec roku szkolnego. Tragedia. Wolałby łyżeczką zdrapywać gumę do żucia z autostrady niż dać się tak publicznie upokorzyć. Tym czasem okazuje się, że we wszystkich tych smętnych zajęciach uczestniczy, i to zupełnie po dobroci, Jamie - córka miejscowego pastora. Ubrana w workowate kiece Jamie śpiewa również w kościelnym chórze i ogląda gwiazdy przez teleskop własnej produkcji. Jamie jest wyszydzanym kozłem ofiarnym grupy Landona Cartera, ma jednak dobre serce i kiedy ten prosi ją o pomoc w opanowaniu roli, zgadza się bez wahania. Stawia tylko jeden warunek. Chłopak musi obiecać, że się w niej nie zakocha. Nic prostszego? Wręcz przeciwnie.

Obsada:

Mandy Moore .... Jamie Sullivan
Shane West .... Landon Carter
Al Thompson .... Eric Hunter
Peter Coyote .... Wielebny Sullivan
Matt Lutz .... Clay Gephardt
Jonathan Parks Jordan .... Walker
Daryl Hannah .... Cynthia Carter
Paz de la Huerta .... Tracie
Lauren German .... Belinda
Clayne Crawford .... Dean

Dane techniczne:

Format : AVI
Format/Info : Audio Video Interleave
File size : 700 MiB
Duration : 1h 37mn
Overall bit rate mode : Variable
Overall bit rate : 1 001 Kbps
Writing application : Nandub v1.0rc2
Writing library : Nandub build 1853/release

Video
ID : 0
Format : MPEG-4 Visual
Codec ID : DIV3
Codec ID/Hint : DivX 3 Low
Duration : 1h 37mn
Bit rate : 852 Kbps
Width : 576 pixels
Height : 240 pixels
Display aspect ratio : 2.40:1
Frame rate : 25.000 fps
Color space : YUV
Chroma subsampling : 4:2:0
Bit depth : 8 bits
Compression mode : Lossy
Bits/(Pixel*Frame) : 0.247
Stream size : 596 MiB (85%)

Audio
ID : 1
Format : MPEG Audio
Format version : Version 1
Format profile : Layer 3
Codec ID : 55
Codec ID/Hint : MP3
Duration : 1h 37mn
Bit rate mode : Variable
Bit rate : 135 Kbps
Minimum bit rate : 128 Kbps
Channel(s) : 2 channels
Sampling rate : 48.0 KHz
Compression mode : Lossy
Stream size : 94.7 MiB (14%)
Alignment : Aligned on interleaves
Interleave, duration : 24 ms (0.60 video frame)
Interleave, preload duration : 459 ms
Writing library : LAME3.91
Encoding settings : -m s -V 0 -q 2 -lowpass 20.4 --vbr-old -b 128
Szczególy torrenta
Info Hash
004bdb685a670d0f55791e9eb43c488f126961db
Tracker
http://94.228.192.98/announce [EXTERNAL]
Uaktualnienie
16/12/2013 04:57:03 (Jezeli nie widac seeda kliknij na [uaktualnij] by odswiezyc statystyki).
Pokaz/Ukryj Pliki:
3 pliki
Ocena:
N/A
Komentarze


Brak komentarzy...


Wstecz